Input #0, matroska,webm, from '/home/kerrigan/Videos/[N4O-Raws] Kokkoku - 01 [BD 720p E-AC-3].mkv':
  Metadata:
    title           : [N4O] Kokkoku - 01 (BD 720p)
    encoder         : libebml v1.3.5 + libmatroska v1.4.8
    creation_time   : 2018-06-09T12:14:34.000000Z
  Duration: 00:23:44.97, start: 0.000000, bitrate: 2690 kb/s
    Stream #0:0(jpn): Video: h264 (High 4:4:4 Predictive), yuv444p10le(tv, bt709/unknown/unknown, progressive), 1280x720, SAR 1:1 DAR 16:9, 23.98 fps, 23.98 tbr, 1k tbn, 47.95 tbc (default)
    Metadata:
      title           : BD | 720p Hi444
      BPS             : 2464485
      BPS-eng         : 2464485
      DURATION        : 00:23:44.966000000
      DURATION-eng    : 00:23:44.966000000
      NUMBER_OF_FRAMES: 34165
      NUMBER_OF_FRAMES-eng: 34165
      NUMBER_OF_BYTES : 438976029
      NUMBER_OF_BYTES-eng: 438976029
      _STATISTICS_WRITING_APP: mkvmerge v19.0.0 ('Brave Captain') 64-bit
      _STATISTICS_WRITING_APP-eng: mkvmerge v19.0.0 ('Brave Captain') 64-bit
      _STATISTICS_WRITING_DATE_UTC: 2018-06-09 12:14:34
      _STATISTICS_WRITING_DATE_UTC-eng: 2018-06-09 12:14:34
      _STATISTICS_TAGS: BPS DURATION NUMBER_OF_FRAMES NUMBER_OF_BYTES
      _STATISTICS_TAGS-eng: BPS DURATION NUMBER_OF_FRAMES NUMBER_OF_BYTES
    Stream #0:1(jpn): Audio: eac3, 48000 Hz, stereo, fltp, 224 kb/s (default)
    Metadata:
      title           : Amazon | E-AC-3 224kb/s
      BPS             : 224000
      BPS-eng         : 224000
      DURATION        : 00:23:44.864000000
      DURATION-eng    : 00:23:44.864000000
      NUMBER_OF_FRAMES: 44527
      NUMBER_OF_FRAMES-eng: 44527
      NUMBER_OF_BYTES : 39896192
      NUMBER_OF_BYTES-eng: 39896192
      _STATISTICS_WRITING_APP: mkvmerge v19.0.0 ('Brave Captain') 64-bit
      _STATISTICS_WRITING_APP-eng: mkvmerge v19.0.0 ('Brave Captain') 64-bit
      _STATISTICS_WRITING_DATE_UTC: 2018-06-09 12:14:34
      _STATISTICS_WRITING_DATE_UTC-eng: 2018-06-09 12:14:34
      _STATISTICS_TAGS: BPS DURATION NUMBER_OF_FRAMES NUMBER_OF_BYTES
      _STATISTICS_TAGS-eng: BPS DURATION NUMBER_OF_FRAMES NUMBER_OF_BYTES

Изменить пасту